<?xml version="1.0" standalone="no"?>
<!DOCTYPE svg PUBLIC "-//W3C//DTD SVG 1.1//EN" "http://www.w3.org/Graphics/SVG/1.1/DTD/svg11.dtd" >
<svg xmlns="http://www.w3.org/2000/svg">
<metadata>
This is a custom SVG webfont generated by Font Squirrel.
Copyright   :  1998 Ray Larabiewwwlarabiefontscom
Designer    : Ray Larabie
Foundry     : Larabie Fonts
Foundry URL : httpwwwlarabiefontscom
</metadata>
<defs>
<font id="BlueHighwayRegular" horiz-adv-x="1128" >
<font-face units-per-em="2048" ascent="1638" descent="-410" />
<missing-glyph horiz-adv-x="583" />
<glyph unicode=" "  horiz-adv-x="583" />
<glyph unicode="&#x09;" horiz-adv-x="583" />
<glyph unicode="&#xa0;" horiz-adv-x="583" />
<glyph unicode="!" horiz-adv-x="563" d="M170 129q0 47 34 81t81 34t80.5 -34t33.5 -81t-33.5 -81t-80.5 -34t-81 34t-34 81zM201 700v449h166v-449l-21 -342h-123z" />
<glyph unicode="&#x22;" horiz-adv-x="905" d="M176 1196h172l-39 -491h-96zM559 1196h174l-39 -491h-96z" />
<glyph unicode="#" horiz-adv-x="1382" d="M147 299v129h254l78 313h-241v129h272l68 279h124l-67 -279h276l70 279h123l-68 -279h211v-129h-243l-78 -313h231v-129h-262l-72 -285h-121l70 285h-278l-72 -285h-123l72 285h-224zM522 426h283l78 317h-281z" />
<glyph unicode="$" horiz-adv-x="1153" d="M152 823q0 170 323 224v102h209v-96q164 -16 266 -68l-59 -160q-63 33 -207 60v-193q324 -61 324 -278q0 -248 -324 -295v-105h-209v101q-184 18 -319 71l67 156q98 -49 252 -70v279q-323 75 -323 272zM375 797q0 -51 100 -76v172q-100 -33 -100 -96zM684 276 q115 45 115 138q0 70 -115 102v-240z" />
<glyph unicode="%" horiz-adv-x="1290" d="M121 946q0 84 58.5 142.5t142.5 58.5t141 -58.5t57 -142.5q0 -82 -58.5 -140t-139.5 -58q-84 0 -142.5 57t-58.5 141zM152 946.5q0 -69.5 50 -119t119.5 -49.5t118.5 49.5t49 119t-49 119.5t-118.5 50t-119.5 -50t-50 -119.5zM322 16l491 1131h123l-492 -1131h-122z M760 217q0 82 58.5 140.5t140 58.5t140 -58.5t58.5 -140.5q0 -84 -57.5 -142.5t-141.5 -58.5t-141 58.5t-57 142.5zM791 217q0 -70 49 -120t118.5 -50t119.5 50t50 120t-50 119t-119.5 49t-118.5 -49t-49 -119z" />
<glyph unicode="&#x26;" horiz-adv-x="1464" d="M129 330q0 102 57 170q43 51 170 131q-168 137 -168 287q0 135 138 202q106 51 256 51q352 0 364 -239l-231 -66q-14 143 -148 144q-145 0 -145 -125q0 -70 215 -248l283 -225q59 88 65 237h232v-57q0 -180 -115 -326l268 -250h-301l-123 113q-199 -137 -381 -137 q-180 0 -297 78q-139 90 -139 260zM373 377q0 -90 60.5 -145.5t150.5 -55.5q127 0 200 103l-299 245l-53 -39q-59 -42 -59 -108z" />
<glyph unicode="'" horiz-adv-x="573" d="M186 1081q0 49 33 82t82 33t81 -33t32 -82q0 -236 -183 -252v11q94 14 101 129h-33q-47 0 -80 32.5t-33 79.5z" />
<glyph unicode="(" horiz-adv-x="714" d="M150 459q0 391 249 737h185q-57 -66 -86 -106q-195 -281 -195 -631q0 -379 283 -738h-187q-249 347 -249 738z" />
<glyph unicode=")" horiz-adv-x="776" d="M174 -279q143 178 209 338q74 182 74 400q0 354 -195 631q-20 31 -86 106h184q250 -346 250 -737q0 -393 -250 -738h-186z" />
<glyph unicode="*" horiz-adv-x="1392" d="M219 510l404 231l-402 234l72 110l371 -245l-9 405h142l-11 -405l375 243l76 -110l-406 -230l408 -233l-76 -109l-379 252l13 -413h-142l11 403l-373 -242z" />
<glyph unicode="+" horiz-adv-x="937" d="M252 543v168h186v182h168v-182h176v-168h-176v-181h-168v181h-186z" />
<glyph unicode="," horiz-adv-x="542" d="M168 129q0 47 34 81t81 34t80.5 -34t33.5 -81q0 -100 -41 -168q-49 -78 -143 -86v10q94 16 102 131l-32 -2h-6q-44 0 -75 32q-34 34 -34 83z" />
<glyph unicode="-" horiz-adv-x="720" d="M193 543v168h354v-168h-354z" />
<glyph unicode="." horiz-adv-x="542" d="M172 129q0 47 33 81t80 34t80.5 -34t33.5 -81t-33.5 -81t-80.5 -34t-80 34t-33 81z" />
<glyph unicode="/" horiz-adv-x="880" d="M104 -68l527 1332h157l-528 -1332h-156z" />
<glyph unicode="0" horiz-adv-x="1179" d="M160 582q0 276 82 413q106 174 360 174q252 0 359 -176q84 -139 83 -411q0 -274 -83 -414q-104 -176 -358.5 -176t-358.5 176q-84 140 -84 414zM389 580q0 -178 27 -261q47 -143 186 -143q115 0 168 105q45 90 45 301q0 174 -29 260q-49 145 -184 145q-139 0 -186 -145 q-27 -82 -27 -262z" />
<glyph unicode="1" horiz-adv-x="618" d="M141 891v158q143 4 154 102h176v-1137h-207v877h-123z" />
<glyph unicode="2" horiz-adv-x="1083" d="M143 104q0 133 84 258q76 115 199 191q55 35 131 76q59 33 127 80q68 59 68 139q0 66 -66 100q-53 27 -125 27q-123 0 -285 -125l-124 156q182 152 434 151q360 0 360 -336q0 -102 -63 -176q-49 -55 -162 -121q-53 -29 -186 -112q-121 -84 -121 -205h542v-193h-813v90z " />
<glyph unicode="3" horiz-adv-x="1073" d="M141 170l176 102q57 -98 193 -98q94 0 154.5 48t60.5 140q0 195 -215 195h-78v178h78q66 0 107.5 37t41.5 100q0 137 -149 138q-111 0 -141 -84l-166 57q37 84 123 134t180 50q166 0 266 -108q68 -74 68 -176q0 -111 -142 -224q100 -16 165 -106t65 -195 q0 -174 -127 -266q-113 -84 -293 -84q-261 0 -367 162z" />
<glyph unicode="4" horiz-adv-x="1200" d="M137 291v211l527 647h251v-676h158v-182h-158v-279h-215v279h-563zM342 473h358v451z" />
<glyph unicode="5" horiz-adv-x="1126" d="M139 80l109 172q150 -88 274 -88q115 0 191 55q88 61 88 172q0 90 -70 155.5t-160 65.5q-113 0 -209 -86l-206 70l43 354q8 74 16 199h700v-184h-526l-24 -248q98 68 213 67q190 0 301 -100q115 -106 114 -295q0 -197 -139 -301q-127 -96 -328 -96q-229 0 -387 88z" />
<glyph unicode="6" horiz-adv-x="1099" d="M143 451q0 270 152 473q164 223 426 231l33 -154q-156 -8 -256 -112q-68 -70 -127 -217q125 82 235 82q162 0 262.5 -100.5t100.5 -262.5q0 -193 -116 -292t-312 -99q-195 0 -299 131q-99 121 -99 320zM342 379q0 -96 59.5 -155.5t155.5 -59.5t159.5 59.5t63.5 155.5 t-59 155.5t-155.5 59.5t-160 -59.5t-63.5 -155.5z" />
<glyph unicode="7" horiz-adv-x="1085" d="M127 956v193h827v-195q-199 -139 -311 -419q-102 -250 -106 -521h-230q6 287 96 521q106 272 310 421h-586z" />
<glyph unicode="8" horiz-adv-x="1110" d="M154 358q0 98 61 182.5t154 125.5q-123 109 -123 219q0 123 104 205q96 78 221 77.5t226 -77.5q109 -86 108 -207q0 -111 -141 -224q100 -18 163.5 -106t63.5 -195q0 -174 -125 -268q-113 -82 -293 -82t-292 84q-127 92 -127 266zM358 363q0 -88 63.5 -138.5t153.5 -50.5 q94 0 155 48t61 141q0 195 -216 194q-217 1 -217 -194zM424 872q0 -66 43 -101.5t108.5 -35.5t107.5 37t42 100q0 137 -150 138q-151 -1 -151 -138z" />
<glyph unicode="9" horiz-adv-x="1120" d="M164 760q0 193 121 295q111 94 307 94t301 -129q96 -119 96 -320q0 -270 -151 -473q-164 -223 -426 -231l-33 154q156 8 256 112q68 70 127 217q-125 -82 -236 -82q-162 0 -262 100.5t-100 262.5zM352 772q0 -96 59.5 -155.5t156 -59.5t160 59.5t63.5 155.5t-58.5 155.5 t-155 59.5t-161 -59.5t-64.5 -155.5z" />
<glyph unicode=":" horiz-adv-x="520" d="M133 129q0 47 33 81t80 34t80.5 -34t33.5 -81t-33.5 -81t-80.5 -34t-80 34t-33 81zM133 745q0 47 33 80t80 33t80.5 -32.5t33.5 -80.5q0 -49 -32.5 -81.5t-81.5 -32.5t-81 32.5t-32 81.5z" />
<glyph unicode=";" horiz-adv-x="532" d="M143 129q0 47 34 81t81 34t81 -34t34 -81q0 -100 -41 -168q-49 -78 -144 -86v10q94 16 103 131l-35 -2h-5q-44 0 -75 33q-33 35 -33 82zM143 745q0 47 34 80t81 33t81 -32.5t34 -80.5q0 -49 -33 -81.5t-82 -32.5t-82 32.5t-33 81.5z" />
<glyph unicode="&#x3c;" horiz-adv-x="1435" d="M236 631l548 413q16 12 35 13q25 0 25 -27q0 -4 -2 -14l-45 -221h434v-328h-434l45 -219q2 -10 2 -15q0 -27 -25 -26q-18 0 -35 12z" />
<glyph unicode="=" horiz-adv-x="866" d="M174 358v170h531v-170h-531zM174 725v168h531v-168h-531z" />
<glyph unicode="&#x3e;" horiz-adv-x="1441" d="M221 467v328h434l-45 221v14q0 27 23 27q18 0 35 -13l549 -413l-549 -412q-16 -12 -35 -12q-23 0 -23 26v15l45 219h-434z" />
<glyph unicode="?" horiz-adv-x="993" d="M135 1049q123 137 367 137q156 0 254 -72q113 -80 112 -229q0 -111 -37 -172q-31 -53 -122 -117q-135 -96 -152 -260h-195v14q0 207 142 324q86 72 96 82q47 53 47 116q0 121 -141 121q-162 0 -268 -102zM344 129q0 47 34 81t81 34t80.5 -34t33.5 -81t-33.5 -81 t-80.5 -34t-81 34t-34 81z" />
<glyph unicode="@" horiz-adv-x="1255" d="M121 551q0 213 150.5 352t363.5 139q217 0 358.5 -134t141.5 -349q0 -123 -2 -141q-8 -78 -43 -135q-16 -27 -69.5 -50.5t-88.5 -23.5q-127 0 -164 110q-86 -47 -188 -47q-162 0 -162 168q0 170 194 170q61 0 138 -37q-27 137 -132 138q-53 0 -98 -25l-31 57 q47 45 146 45q88 0 144.5 -43t56.5 -126v-228q0 -102 98 -102q117 0 123 102q8 145 8 166q0 201 -114.5 317.5t-315.5 116.5q-186 0 -313 -127t-127 -313q0 -180 100 -299q104 -125 280 -143l-45 -35q-174 4 -294 155q-115 144 -115 322zM516 440q0 -84 113 -84q29 0 67 15 q47 18 47 43v82q0 12 -41 25.5t-59 13.5q-127 -1 -127 -95z" />
<glyph unicode="A" horiz-adv-x="1304" d="M137 14l406 1135h245l408 -1135h-242l-82 242h-403l-82 -242h-250zM518 414h303l-151 456z" />
<glyph unicode="B" horiz-adv-x="1198" d="M166 14v1135h487q131 0 226.5 -82t95.5 -211q0 -113 -117 -217q225 -53 225 -281q0 -70 -22 -133q-76 -211 -389 -211h-506zM393 197h287q80 0 135 47t55 124.5t-55 124t-135 46.5l-287 -2v-340zM393 711h234q63 0 112 32.5t49 94.5q0 63 -48 96t-113 33h-234v-256z" />
<glyph unicode="C" horiz-adv-x="1294" d="M133 582q0 270 152.5 424.5t423.5 154.5q319 0 469 -207l-203 -112q-92 115 -266 114q-166 0 -250 -108q-76 -96 -76 -266q0 -164 80 -265q86 -111 246 -110q150 0 239 84l213 -98q-154 -193 -452 -193q-250 0 -413 166t-163 416z" />
<glyph unicode="D" horiz-adv-x="1325" d="M158 14v1135h391q201 0 356 -80q174 -88 248 -260q45 -104 45 -219q0 -180 -98 -320q-178 -256 -563 -256h-379zM391 203h111q197 0 317 90q137 100 137 287q0 188 -137 290q-121 92 -317 93h-111v-760z" />
<glyph unicode="E" horiz-adv-x="1011" d="M158 14v1135h747v-168h-528v-270h323v-168h-323v-361h528v-168h-747z" />
<glyph unicode="F" horiz-adv-x="1024" d="M176 14v1135h739v-168h-520v-287h334v-168h-334v-512h-219z" />
<glyph unicode="G" horiz-adv-x="1341" d="M125 582q0 272 152.5 435t422.5 163q307 0 469 -226l-200 -110q-39 61 -117 99t-152 38q-328 0 -327 -399q0 -168 78 -267q86 -109 249 -108q94 0 174 45q88 49 111 135h-264v174h512v-112q0 -193 -174 -326q-160 -123 -359 -123q-250 0 -412.5 166t-162.5 416z" />
<glyph unicode="H" horiz-adv-x="1296" d="M170 14v1135h229v-457h514v457h232v-1135h-232v484h-514v-484h-229z" />
<glyph unicode="I" horiz-adv-x="548" d="M178 14v1135h209v-1135h-209z" />
<glyph unicode="J" horiz-adv-x="937" d="M172 18v183q160 0 213 12q188 43 188 289v647h213v-752q0 -168 -123.5 -279.5t-293.5 -111.5q-37 0 -197 12z" />
<glyph unicode="K" horiz-adv-x="1294" d="M178 14v1135h232v-610l467 610h260l-398 -483l428 -652h-286l-283 475l-188 -223v-252h-232z" />
<glyph unicode="L" horiz-adv-x="1067" d="M156 14v1135h221v-940h569v-195h-790z" />
<glyph unicode="M" horiz-adv-x="1495" d="M178 14v1135h299l289 -606l289 606h299v-1135h-238v789l-350 -762l-367 758v-785h-221z" />
<glyph unicode="N" horiz-adv-x="1333" d="M164 14v1135h305l463 -719v719h225v-1135h-235l-533 858v-858h-225z" />
<glyph unicode="O" horiz-adv-x="1398" d="M152 582q0 270 145 424.5t414 154.5q266 0 411.5 -155.5t145.5 -423.5q0 -270 -144.5 -426t-412.5 -156q-262 0 -410.5 160t-148.5 422zM401 582q0 -383 309.5 -383t309.5 383t-309.5 383t-309.5 -383z" />
<glyph unicode="P" horiz-adv-x="1212" d="M178 14v1135h588q147 0 242.5 -98.5t95.5 -245.5q0 -150 -92 -256q-98 -109 -246 -109h-360v-426h-228zM406 629h290q76 0 128.5 47t52.5 123q0 74 -52.5 119t-128.5 45h-290v-334z" />
<glyph unicode="Q" horiz-adv-x="1396" d="M158 582q0 270 144 424.5t413 154.5q266 0 412.5 -155.5t146.5 -423.5q0 -274 -164 -443l74 -88l-154 -129l-88 115q-125 -41 -235 -41q-250 0 -404 170q-145 162 -145 416zM406 582q0 -385 301 -385q31 0 100 10l-148 182l164 111l144 -181q57 119 57 263 q0 383 -309 383t-309 -383z" />
<glyph unicode="R" horiz-adv-x="1218" d="M170 14v1135h588q145 0 240.5 -98.5t95.5 -245.5q0 -113 -56 -205q-39 -63 -77 -92q-25 -20 -91 -49l211 -445h-254l-198 426h-232v-426h-227zM397 629h289q76 0 129 47t53 123q0 74 -54 119t-128 45h-289v-334z" />
<glyph unicode="S" d="M168 877q0 147 164 227q127 61 293 61q205 0 342 -86l-60 -172q-121 76 -329 76q-174 0 -175 -121q0 -82 144 -127q72 -20 211 -63q266 -84 266 -299q0 -188 -129 -285q-117 -88 -309 -88q-221 0 -416 94l74 170q137 -78 336 -78q231 0 231 170q0 127 -217 189 q-240 68 -283 90q-143 78 -143 242z" />
<glyph unicode="T" horiz-adv-x="1228" d="M152 954v195h956v-195h-363v-940h-229v940h-364z" />
<glyph unicode="U" horiz-adv-x="1288" d="M156 461v688h231v-653q0 -276 250 -277q252 0 252 277v653h233v-686q0 -223 -130 -338t-355 -115q-223 0 -352 115t-129 336z" />
<glyph unicode="V" horiz-adv-x="1300" d="M113 1149h252l303 -840l303 840h246l-408 -1135h-291z" />
<glyph unicode="W" horiz-adv-x="1853" d="M125 1149h240l219 -811l237 811h223l238 -813l217 813h232l-310 -1135h-297l-198 783l-193 -783h-297z" />
<glyph unicode="X" horiz-adv-x="1337" d="M139 14l393 572l-385 563h267l264 -404l270 404h252l-387 -551l393 -584h-266l-272 424l-277 -424h-252z" />
<glyph unicode="Y" horiz-adv-x="1306" d="M145 1149h265l274 -504l266 504h252l-407 -694v-441h-234v426z" />
<glyph unicode="Z" horiz-adv-x="1179" d="M150 14v183l583 735h-555v217h842v-186l-582 -732h615v-217h-903z" />
<glyph unicode="[" horiz-adv-x="702" d="M176 -264v1460h389v-125h-250v-1210h250v-125h-389z" />
<glyph unicode="\" horiz-adv-x="962" d="M117 1196h157l574 -1413h-158z" />
<glyph unicode="]" horiz-adv-x="741" d="M176 -139h250v1210h-250v125h389v-1460h-389v125z" />
<glyph unicode="^" d="M135 705q0 18 12 34l414 549l412 -549q14 -18 14 -34q0 -25 -29 -25q-4 0 -14 2l-219 45v-434h-328v434l-221 -45q-10 -2 -14 -2q-27 0 -27 25z" />
<glyph unicode="_" horiz-adv-x="1472" d="M172 -12h1110v-224h-1110v224z" />
<glyph unicode="`" horiz-adv-x="919" d="M387 1335h139l129 -352h-71z" />
<glyph unicode="a" horiz-adv-x="1075" d="M147 305q0 156 109 238q96 72 256 71q106 0 219 -61q-4 217 -209 217q-109 0 -184 -53l-66 119q100 88 281 88q160 0 262 -72q117 -80 117 -234v-600h-201v72q-152 -78 -278 -78q-143 0 -224.5 75t-81.5 218zM354 311q0 -66 66 -100q51 -27 123 -27q33 0 109.5 30 t76.5 54v111q0 37 -65 61q-53 20 -97 21q-213 0 -213 -150z" />
<glyph unicode="b" horiz-adv-x="1114" d="M154 16v1084l206 74v-357q137 82 246 82q190 0 293 -147q88 -129 88 -330q0 -184 -105.5 -296t-289.5 -112q-143 0 -232 131v-129h-206zM360 350q14 -29 70 -100q59 -59 127 -60q111 0 175.5 64.5t64.5 175.5q0 215 -133 266q-43 16 -107 17q-131 0 -197 -144v-219z" />
<glyph unicode="c" horiz-adv-x="1026" d="M143 451q0 195 124 323.5t319 128.5q170 0 291 -104l-154 -115q-55 43 -137 43q-113 0 -174 -86q-55 -76 -56 -192q0 -276 232 -277q92 0 149 53l170 -102q-121 -125 -321 -125q-207 0 -325 123t-118 330z" />
<glyph unicode="d" horiz-adv-x="1124" d="M129 422q0 188 107 323q115 150 296 150q109 0 242 -78v283l205 74v-1158h-205v129q-88 -131 -237 -131q-180 0 -294 114t-114 294zM338 422q0 -111 64.5 -175.5t175 -64.5t196.5 160v219q-14 33 -74 98q-57 45 -122 46q-106 0 -158 -46q-82 -71 -82 -237z" />
<glyph unicode="e" horiz-adv-x="1089" d="M131 444q0 217 117 343t332 126q219 0 321 -178q82 -141 84 -377h-643q-2 -66 50 -119t120 -63q25 -4 61 -4q100 0 162 61l144 -106q-115 -129 -306 -129q-203 0 -322.5 121.5t-119.5 324.5zM340 512h440q0 98 -58 167t-156.5 69t-162 -69t-63.5 -167z" />
<glyph unicode="f" horiz-adv-x="821" d="M152 743v134h112q0 324 289 323q45 0 98 -6v-154q-88 0 -125 -14q-74 -29 -82 -149h207v-134h-196v-729h-191v729h-112z" />
<glyph unicode="g" horiz-adv-x="1112" d="M145 473q0 176 114 294t290 118q104 0 221 -64v64h207v-697q0 -217 -92 -366q-111 -174 -316 -182l-28 182q221 35 221 272q-70 -47 -103 -59q-43 -16 -116 -17q-201 0 -291 103q-107 121 -107 352zM360 467q0 -268 207 -268q63 0 129 39q74 43 74 102v215q0 55 -53 101 t-111 46q-111 0 -178.5 -63t-67.5 -172z" />
<glyph unicode="h" horiz-adv-x="1093" d="M168 14v1063l205 107v-441q88 129 262 129q141 0 234.5 -81.5t93.5 -223.5v-553h-207v523q0 70 -58.5 119t-128.5 49q-66 0 -131 -52.5t-65 -115.5v-523h-205z" />
<glyph unicode="i" horiz-adv-x="509" d="M147 1092q0 49 33 81.5t82 32.5t82 -32.5t33 -81.5q0 -47 -34 -80t-81 -33t-81 33t-34 80zM158 14v871h204v-871h-204z" />
<glyph unicode="j" horiz-adv-x="649" d="M45 -195q86 18 133 111q39 78 39 176v793h203v-889q0 -123 -88 -227q-90 -111 -211 -117zM207 1092q0 49 32.5 81.5t82 32.5t82 -32.5t32.5 -81.5q0 -47 -33.5 -80t-81 -33t-81 33t-33.5 80z" />
<glyph unicode="k" horiz-adv-x="1075" d="M150 14v1069l204 101v-619l289 285h287l-295 -295l334 -541h-240l-258 416l-117 -113v-303h-204z" />
<glyph unicode="l" horiz-adv-x="565" d="M186 14v1063l207 107v-1170h-207z" />
<glyph unicode="m" horiz-adv-x="1683" d="M162 14v871h203v-105q129 119 276 119q137 0 236 -90q137 84 299 84q156 0 254 -72q113 -82 112 -231v-576h-207v496q0 86 -47 141.5t-131 55.5q-61 0 -114.5 -34t-75.5 -89q-12 -31 -13 -49v-521h-206v496q0 86 -47.5 141.5t-131.5 55.5t-144 -56.5t-60 -140.5v-496 h-203z" />
<glyph unicode="n" horiz-adv-x="1093" d="M172 14v871h205v-105q127 119 276 119q141 0 227.5 -84t86.5 -225v-576h-207v496q0 86 -47 141.5t-131 55.5t-144.5 -56.5t-60.5 -140.5v-496h-205z" />
<glyph unicode="o" horiz-adv-x="1101" d="M119 451q0 195 123 323.5t317.5 128.5t318 -128t123.5 -324q0 -205 -119.5 -329t-322.5 -124q-207 0 -323.5 123t-116.5 330zM336 449q0 -272 225 -273q221 0 221 273q0 276 -223 276q-115 0 -172 -84q-51 -73 -51 -192z" />
<glyph unicode="p" horiz-adv-x="1114" d="M156 -354v1257h206v-129q84 127 220 127q182 0 293.5 -119.5t111.5 -302.5q0 -190 -92 -319q-104 -143 -289 -144q-104 0 -244 66v-326zM362 342q0 -45 63.5 -88t111.5 -43q123 0 191.5 68.5t68.5 191.5q0 113 -63.5 176.5t-176.5 63.5q-55 0 -125 -50.5t-70 -103.5v-215 z" />
<glyph unicode="q" horiz-adv-x="1148" d="M156 479q0 178 107.5 294t285.5 116q145 0 231 -131v127h207v-1147l-207 -100v444q-139 -66 -241 -66q-182 0 -289 144q-94 129 -94 319zM346 471q0 -123 68.5 -191.5t191.5 -68.5q53 0 113.5 40t60.5 91v215q0 55 -68.5 104.5t-125.5 49.5q-113 0 -176.5 -63.5 t-63.5 -176.5z" />
<glyph unicode="r" horiz-adv-x="761" d="M170 14v873h186v-103q109 123 219 123q59 0 105 -22l-72 -205q-49 23 -78 22q-74 0 -124 -50t-50 -124v-514h-186z" />
<glyph unicode="s" horiz-adv-x="944" d="M127 647q0 143 131 215q106 59 262 60q170 0 285 -68l-62 -176q-133 72 -266 72q-121 0 -121 -93q0 -57 117 -86q78 -18 205 -57q170 -72 170 -233q0 -219 -254 -267q-66 -12 -152 -12q-119 0 -313 76l70 155q125 -61 268 -61q57 0 104 23q59 29 60 79q0 55 -111 84 q-57 12 -209 58q-184 63 -184 231z" />
<glyph unicode="t" horiz-adv-x="761" d="M117 725v164h108v158l189 94v-252h211v-164h-211v-352q0 -219 143 -219q43 0 96 16l-32 -154q-88 -16 -154 -16q-242 0 -242 270v455h-108z" />
<glyph unicode="u" horiz-adv-x="1087" d="M147 311v578h205l2 -496q0 -86 46 -141t130 -55t144.5 56t60.5 140v496h205v-871h-205v103q-127 -117 -274 -117q-141 0 -227.5 83t-86.5 224z" />
<glyph unicode="v" horiz-adv-x="1056" d="M117 889h202l220 -619l213 619h206l-311 -875h-229z" />
<glyph unicode="w" horiz-adv-x="1654" d="M119 889h205l217 -594l215 594h174l219 -594l213 594h207l-312 -875h-229l-186 539l-193 -539h-229z" />
<glyph unicode="x" horiz-adv-x="1116" d="M102 14l304 443l-287 432h256l166 -256l164 256h256l-287 -432l289 -443h-246l-176 262l-179 -262h-260z" />
<glyph unicode="y" horiz-adv-x="1165" d="M129 889h252l229 -608l240 608h217l-489 -1243h-232l141 356z" />
<glyph unicode="z" horiz-adv-x="1126" d="M205 14v150l424 543h-406v182h703v-148l-416 -540h424v-187h-729z" />
<glyph unicode="{" horiz-adv-x="1015" d="M119 399v131q158 6 227 62q82 66 82 217v117q0 270 289 270h174v-113h-10q-182 0 -234 -65q-41 -53 -41 -244q0 -106 -67 -176q-49 -51 -162 -104v-58q229 -104 229 -278q0 -193 39 -244q49 -66 234 -66h12v-112h-174q-289 0 -289 270v115q0 154 -80 219q-71 55 -229 59z " />
<glyph unicode="|" horiz-adv-x="411" d="M178 -264v1460h58v-1460h-58z" />
<glyph unicode="}" horiz-adv-x="1024" d="M119 -152h12q186 0 236 66q39 51 39 244q0 172 231 278v58q-113 53 -162 104q-70 72 -69 176q0 193 -39 244q-49 66 -236 65h-12v113h176q291 0 291 -270v-117q0 -152 82 -215q72 -57 227 -64v-131q-162 0 -231 -57q-78 -61 -78 -221v-115q0 -270 -291 -270h-176v112z " />
<glyph unicode="~" horiz-adv-x="1449" d="M156 383q63 348 329 348q96 0 191 -53l170 -105q53 -33 84 -32q137 0 182 186l166 -59q-10 -131 -107 -224q-113 -109 -231 -108q-80 0 -229.5 107.5t-214.5 107.5q-94 0 -129 -96q0 -4 -27 -131z" />
<glyph unicode="&#xa1;" horiz-adv-x="546" d="M154 1038q0 47 32.5 81t79.5 34t81 -34t34 -81t-34 -80.5t-81 -33.5t-79.5 33.5t-32.5 80.5zM184 18v484l23 305h123l20 -305v-484h-166z" />
<glyph unicode="&#xa2;" d="M135 846q0 -18 12 -35l414 -549l412 549q14 18 14 35q0 23 -29 22h-14l-219 -45v434h-328v-434l-221 45h-14q-27 1 -27 -22z" />
<glyph unicode="&#xa3;" d="M154 670l231 -232l307 307l125 -188q23 -35 45 -12q12 12 15 33l96 679l-680 -96q-18 -2 -33 -14q-23 -23 12 -45l189 -125z" />
<glyph unicode="&#xa4;" d="M164 1257l680 -96q18 -2 33 -14q23 -23 -13 -45l-188 -125l307 -307l-231 -232l-308 307l-125 -188q-23 -35 -45 -12q-12 12 -14 33z" />
<glyph unicode="&#xa5;" d="M154 987l231 232l307 -308l125 189q23 35 45 12q12 -12 15 -33l96 -680l-680 97q-20 2 -33 14q-23 23 12 45l189 125z" />
<glyph unicode="&#xa6;" d="M164 350l680 99q23 4 33 14q23 23 -13 45l-188 125l307 307l-231 231l-308 -307l-125 187q-25 35 -45 14q-12 -12 -14 -33z" />
<glyph unicode="&#xa7;" d="M135 705q0 18 12 34l414 549l412 -549q14 -18 14 -34q0 -25 -29 -25q-4 0 -14 2l-219 45v-434h-328v434l-221 -45q-10 -2 -14 -2q-27 0 -27 25z" />
<glyph unicode="&#xa8;" horiz-adv-x="1193" d="M299 1120q0 47 34 81t81 34t79.5 -34t32.5 -81t-32.5 -80.5t-79.5 -33.5t-81 33.5t-34 80.5zM694 1120q0 47 34 81t81 34t81 -34t34 -81t-34 -80.5t-81 -33.5t-81 33.5t-34 80.5z" />
<glyph unicode="&#xa9;" horiz-adv-x="1435" d="M236 631l548 413q16 12 35 13q25 0 25 -27q0 -4 -2 -14l-45 -221h434v-328h-434l45 -219q2 -10 2 -15q0 -27 -25 -26q-18 0 -35 12z" />
<glyph unicode="&#xaa;" horiz-adv-x="1441" d="M221 467v328h434l-45 221v14q0 27 23 27q18 0 35 -13l549 -413l-549 -412q-16 -12 -35 -12q-23 0 -23 26v15l45 219h-434z" />
<glyph unicode="&#xad;" horiz-adv-x="720" d="M193 543v168h354v-168h-354z" />
<glyph unicode="&#xaf;" horiz-adv-x="856" d="M178 973v223h506v-223h-506z" />
<glyph unicode="&#x2c9;" horiz-adv-x="856" d="M178 973v223h506v-223h-506z" />
<glyph unicode="&#xb0;" horiz-adv-x="874" d="M164 836q0 131 69 227q78 109 203 108q127 0 203 -108q68 -96 68 -227q0 -129 -70 -226q-78 -109 -201 -108q-125 0 -203 108q-69 97 -69 226zM256 836q0 -84 49 -145.5t131 -61.5q80 0 133 63q47 61 47 143.5t-47 143.5q-53 66 -133 65q-82 0 -131 -62t-49 -146z" />
<glyph unicode="&#xb2;" horiz-adv-x="1083" d="M143 14v90q0 133 84 258q76 115 199 191q55 35 131 76q59 33 127 80q68 59 68 139q0 66 -66 100q-53 27 -125 27q-123 0 -285 -125l-124 156q182 152 434 151q360 0 360 -336q0 -102 -63 -176q-49 -55 -162 -121q-53 -29 -186 -112q-121 -84 -121 -205h542v-193h-813z " />
<glyph unicode="&#xb3;" horiz-adv-x="1073" d="M141 170l176 102q57 -98 193 -98q94 0 154.5 48t60.5 140q0 195 -215 195h-78v178h78q66 0 107.5 37t41.5 100q0 137 -149 138q-111 0 -141 -84l-166 57q37 84 123 134t180 50q166 0 266 -108q68 -74 68 -176q0 -111 -142 -224q100 -16 165 -106t65 -195 q0 -174 -127 -266q-113 -84 -293 -84q-261 0 -367 162z" />
<glyph unicode="&#xb9;" horiz-adv-x="618" d="M141 891v158q143 4 154 102h176v-1137h-207v877h-123z" />
<glyph unicode="&#xba;" horiz-adv-x="1101" d="M119 451q0 195 123 323.5t317.5 128.5t318 -128t123.5 -324q0 -205 -119.5 -329t-322.5 -124q-207 0 -323.5 123t-116.5 330zM336 449q0 -272 225 -273q221 0 221 273q0 276 -223 276q-115 0 -172 -84q-51 -73 -51 -192z" />
<glyph unicode="&#xbf;" horiz-adv-x="999" d="M131 322q0 119 41 184q27 41 96 90q41 29 113 98q49 68 59 178h195v-16q0 -129 -41 -205q-37 -68 -145 -153q-98 -78 -99 -164q0 -121 142 -121q66 0 144.5 29.5t125.5 72.5l100 -157q-123 -137 -366 -138q-156 0 -254 72q-111 80 -111 230zM426 1079q0 47 33 81t80 34 t80.5 -34t33.5 -81t-33.5 -80.5t-80.5 -33.5t-80 33.5t-33 80.5z" />
<glyph unicode="&#xc0;" horiz-adv-x="1296" d="M125 14l405 1135h246l406 -1135h-242l-80 242h-405l-80 -242h-250zM428 1602h137l131 -353h-71zM506 414h303l-152 454z" />
<glyph unicode="&#xc1;" horiz-adv-x="1308" d="M125 14l405 1135h246l406 -1135h-242l-80 242h-405l-80 -242h-250zM506 414h303l-152 454zM522 1253h72l197 353h-138z" />
<glyph unicode="&#xc2;" horiz-adv-x="1316" d="M127 14l408 1135h245l406 -1135h-242l-80 242h-405l-82 -242h-250zM418 1241l188 354h135l189 -354h-103l-155 283l-154 -283h-100zM510 414h301l-149 454z" />
<glyph unicode="&#xc3;" horiz-adv-x="1318" d="M123 14l405 1135h246l408 -1135h-242l-82 242h-403l-82 -242h-250zM350 1337q59 111 168 111q39 0 116 -25.5t116 -25.5q86 0 114 63l70 -51q-16 -51 -105 -84q-33 -12 -65 -12q-39 0 -110.5 25.5t-104.5 25.5q-66 0 -125 -74zM504 414h303l-152 454z" />
<glyph unicode="&#xc4;" horiz-adv-x="1333" d="M96 14l408 1135h246l405 -1135h-242l-79 242h-406l-82 -242h-250zM319 1386q0 47 34 80t81 33t80 -32.5t33 -80.5q0 -49 -32 -81.5t-81 -32.5t-82 32.5t-33 81.5zM479 414h301l-149 454zM715 1386q0 47 33.5 80t81 33t81 -32.5t33.5 -80.5q0 -49 -32.5 -81.5t-82 -32.5 t-82 32.5t-32.5 81.5z" />
<glyph unicode="&#xc5;" horiz-adv-x="1411" d="M125 14l405 1088q-80 88 -79 155q0 96 71 154q66 51 164 51t166 -51q72 -57 72 -154q0 -68 -80 -155l405 -1088h-276l-64 236h-452l-64 -236h-268zM508 401h348l-174 478zM545 1264q0 -63 39 -104.5t102.5 -41.5t102 41t38.5 104.5t-38.5 103.5t-102.5 40q-61 0 -101 -41 t-40 -102z" />
<glyph unicode="&#xc6;" horiz-adv-x="1863" d="M100 14l471 1135h1164v-205h-568v-233h527v-205h-527v-287h568v-205h-811v326h-418l-133 -326h-273zM590 541h334v415h-154z" />
<glyph unicode="&#xc7;" horiz-adv-x="1282" d="M115 582q0 270 152.5 424.5t422.5 154.5q319 0 469 -207l-203 -112q-94 115 -266 114q-164 0 -250 -108q-78 -98 -78 -266q0 -162 80 -265q90 -111 248 -110q150 0 238 84l215 -98q-117 -145 -334 -185v-33q0 -270 -279 -270q-66 0 -137 14l66 101q41 -8 78 -8 q168 0 165 188q-254 4 -420.5 166t-166.5 416z" />
<glyph unicode="&#xc8;" horiz-adv-x="1019" d="M135 14v1135h750v-168h-531v-270h326v-168h-326v-361h531v-168h-750zM373 1602h137l131 -353h-72z" />
<glyph unicode="&#xc9;" horiz-adv-x="1042" d="M154 14v1135h749v-168h-530v-270h323v-168h-323v-361h530v-168h-749zM420 1253h72l196 353h-139z" />
<glyph unicode="&#xca;" horiz-adv-x="1032" d="M141 14v1135h750v-168h-531v-270h324v-168h-324v-361h531v-168h-750zM242 1249l188 353h133l189 -353h-103l-155 281l-154 -281h-98z" />
<glyph unicode="&#xcb;" horiz-adv-x="1036" d="M143 14v1135h750v-168h-531v-270h324v-168h-324v-361h531v-168h-750zM217 1386q0 47 34 80t81 33t79.5 -32.5t32.5 -80.5q0 -49 -31.5 -81.5t-80.5 -32.5t-82 32.5t-33 81.5zM614 1386q0 47 33 80t80 33t81 -32.5t34 -80.5q0 -49 -33 -81.5t-82 -32.5t-81 32.5t-32 81.5z " />
<glyph unicode="&#xcc;" horiz-adv-x="575" d="M137 1602h137l132 -353h-74zM176 14v1135h207v-1135h-207z" />
<glyph unicode="&#xcd;" horiz-adv-x="548" d="M154 1253h71l197 353h-139zM170 14v1135h207v-1135h-207z" />
<glyph unicode="&#xce;" horiz-adv-x="698" d="M109 1249l188 353h135l189 -353h-103l-156 281l-153 -281h-100zM248 14v1135h207v-1135h-207z" />
<glyph unicode="&#xcf;" horiz-adv-x="677" d="M20 1386q0 47 33 80t80 33t81 -32.5t34 -80.5q0 -49 -33 -81.5t-82 -32.5t-81 32.5t-32 81.5zM225 14v1135h209v-1135h-209zM416 1386q0 47 33.5 80t81 33t81 -32.5t33.5 -80.5q0 -49 -32.5 -81.5t-82 -32.5t-82 32.5t-32.5 81.5z" />
<glyph unicode="&#xd0;" horiz-adv-x="1427" d="M117 487v197h129v465h395q299 0 469 -131q188 -147 188 -438q0 -287 -196 -435q-174 -131 -471 -131h-385v473h-129zM483 229h113q455 0 455 355q0 221 -133 297q-94 53 -322 53h-113v-250h254v-197h-254v-258z" />
<glyph unicode="&#xd1;" horiz-adv-x="1333" d="M156 14v1135h305l463 -719v719h225v-1135h-236l-532 858v-858h-225zM371 1337q59 111 168 111q39 0 114.5 -25.5t116.5 -25.5q86 0 115 63l67 -51q-12 -43 -39 -59l-64 -25q-32 -12 -65 -12q-39 0 -111.5 25.5t-105.5 25.5q-63 0 -125 -74z" />
<glyph unicode="&#xd2;" horiz-adv-x="1349" d="M129 582q0 268 145.5 423.5t411.5 155.5q264 0 411.5 -156.5t147.5 -422.5q0 -270 -143 -422q-147 -158 -416 -158q-262 0 -409.5 158t-147.5 422zM377 582q0 -383 309 -383t309 383t-309 383t-309 -383zM489 1602h140l129 -353h-72z" />
<glyph unicode="&#xd3;" horiz-adv-x="1363" d="M123 582q0 268 145.5 423.5t411.5 155.5t412.5 -155.5t146.5 -423.5q0 -270 -143 -422q-147 -158 -416 -158q-262 0 -409.5 158t-147.5 422zM371 582q0 -383 311 -383q307 0 307 383t-307 383q-311 0 -311 -383zM586 1253h71l197 353h-139z" />
<glyph unicode="&#xd4;" horiz-adv-x="1370" d="M131 582q0 268 146.5 423.5t412.5 155.5t411.5 -155.5t145.5 -423.5q0 -270 -143 -422q-145 -158 -414 -158q-262 0 -410.5 158t-148.5 422zM381 582q0 -383 309 -383t309 383t-309 383t-309 -383zM434 1249l189 353h135l188 -353h-102l-156 281l-156 -281h-98z" />
<glyph unicode="&#xd5;" horiz-adv-x="1376" d="M135 582q0 268 145.5 423.5t411.5 155.5t412.5 -155.5t146.5 -423.5q0 -272 -144 -426t-415 -154q-262 0 -409.5 158t-147.5 422zM385 582q0 -383 309 -383q307 0 307 383t-307 383q-309 0 -309 -383zM410 1337q59 111 168 111q39 0 114.5 -25.5t116.5 -25.5q86 0 115 63 l67 -51q-12 -43 -39 -59l-64 -25q-32 -12 -65 -12q-39 0 -111.5 25.5t-105.5 25.5q-63 0 -125 -74z" />
<glyph unicode="&#xd6;" horiz-adv-x="1380" d="M137 582q0 268 145.5 423.5t412 155.5t412.5 -155.5t146 -423.5q0 -270 -145 -425t-414 -155q-262 0 -409.5 158t-147.5 422zM369 1386q0 47 33.5 80t80.5 33t81 -32.5t34 -80.5q0 -49 -33 -81.5t-82 -32.5t-81.5 32.5t-32.5 81.5zM387 582q0 -383 309 -383 q307 0 307.5 383t-307.5 383q-309 0 -309 -383zM766 1386q0 47 32.5 80t80.5 33q49 0 81.5 -31.5t32.5 -81t-32.5 -82t-82 -32.5t-81 32.5t-31.5 81.5z" />
<glyph unicode="&#xd7;" horiz-adv-x="1185" d="M158 164l338 358l-338 361l98 104l336 -360l338 360l98 -104l-338 -361l338 -358l-98 -105l-338 359l-336 -359z" />
<glyph unicode="&#xd8;" horiz-adv-x="1409" d="M160 582q0 268 145.5 423.5t411.5 155.5q117 0 231 -37l35 72h158l-70 -139q205 -164 205 -475q0 -270 -145.5 -426t-413.5 -156q-80 0 -166 20l-10 -18h-154l35 68q-262 160 -262 512zM408 582q0 -205 108 -322l340 680q-74 25 -139 25q-309 0 -309 -383zM643 203 q51 -4 74 -4q309 0 309 383q0 143 -59 268z" />
<glyph unicode="&#xd9;" horiz-adv-x="1292" d="M147 461v688h234v-653q0 -276 250 -277q252 0 252 277v653h231v-686q0 -221 -129 -337t-354 -116q-223 0 -350 113q-134 117 -134 338zM463 1602h137l131 -353h-72z" />
<glyph unicode="&#xda;" horiz-adv-x="1388" d="M197 461v688h231v-653q0 -276 252 -276.5t252 276.5v653h231v-686q0 -221 -129 -337t-354 -116q-223 0 -350 113q-133 117 -133 338zM582 1253h71l197 353h-137z" />
<glyph unicode="&#xdb;" horiz-adv-x="1298" d="M152 461v688h231v-653q0 -276 252 -276.5t252 276.5v653h231v-686q0 -221 -129 -337t-354 -116q-223 0 -350 113q-133 117 -133 338zM391 1249l189 353h135l188 -353h-102l-156 281l-153 -281h-101z" />
<glyph unicode="&#xdc;" horiz-adv-x="1265" d="M158 461v688h231v-653q0 -276 250 -277q252 0 252 277v653h231v-686q0 -223 -129 -338t-354 -115q-223 0 -352 115t-129 336zM326 1386q0 47 33.5 80t80.5 33t81 -32.5t34 -80.5q0 -49 -33 -81.5t-82 -32.5t-81.5 32.5t-32.5 81.5zM723 1386q0 47 34 80t81 33t80.5 -32.5 t33.5 -80.5q0 -49 -32.5 -81.5t-82 -32.5t-82 32.5t-32.5 81.5z" />
<glyph unicode="&#xdd;" horiz-adv-x="1394" d="M162 1149h264l274 -504l267 504h252l-408 -694v-441h-233v426zM557 1253h72l196 353h-139z" />
<glyph unicode="&#xde;" horiz-adv-x="1114" d="M137 14v1135h228v-180h217q438 0 438 -348q0 -190 -131 -297q-121 -98 -316 -99h-208v-211h-228zM365 422h108q152 0 211 24q98 41 98 168q0 109 -133 144q-55 14 -196 14h-88v-350z" />
<glyph unicode="&#xdf;" horiz-adv-x="1191" d="M158 16v811q0 186 106.5 281.5t294.5 95.5q260 0 371 -168q41 -61 41 -127q0 -156 -256 -245q350 -96 350 -304q0 -111 -84 -200q-74 -80 -186 -119q-55 -18 -150 -25q-87 -5 -87 -6h3q-18 0 -35 2v158h99q94 0 156.5 56.5t62.5 148.5q0 168 -283 196v154q84 18 119 41 q63 41 63 129q0 125 -188 125q-190 0 -190 -168v-836h-207z" />
<glyph unicode="&#xe0;" horiz-adv-x="1073" d="M145 305q0 156 109 238q96 72 256 71q106 0 219 -61q-4 217 -209 217q-109 0 -184 -53l-68 119q102 88 283 88q160 0 262 -72q117 -80 117 -234v-600h-201v72q-152 -78 -278 -78q-143 0 -224.5 75t-81.5 218zM352 311q0 -127 189 -127q33 0 109.5 30t76.5 54v111 q1 37 -65 61q-53 20 -97 21q-213 0 -213 -150zM373 1335h139l129 -352h-72z" />
<glyph unicode="&#xe1;" horiz-adv-x="1062" d="M135 305q0 156 109 238q96 72 256 71q106 0 219 -61q-4 217 -209 217q-109 0 -184 -53l-66 119q100 88 281 88q160 0 262 -72q117 -80 117 -234v-600h-201v72q-150 -78 -279 -78q-143 0 -224 75t-81 218zM342 311q0 -66 66 -100q51 -27 122 -27q33 0 110 30t77 54v111 q0 37 -66 61q-53 20 -96 21q-213 0 -213 -150zM496 983h73l195 352h-137z" />
<glyph unicode="&#xe2;" horiz-adv-x="1105" d="M162 305q0 156 108 238q96 72 256 71q106 0 219 -61q-4 217 -208 217q-109 0 -185 -53l-65 119q102 88 282 88q158 0 260 -72q117 -82 117 -234v-600h-201v72q-150 -78 -278 -78q-143 0 -224 76t-81 217zM344 983l188 352h136l188 -352h-102l-156 283l-154 -283h-100z M369 311q0 -66 65 -100q51 -27 123 -27q33 0 109.5 30t76.5 54v111q0 37 -65 61q-53 20 -96 21q-213 0 -213 -150z" />
<glyph unicode="&#xe3;" horiz-adv-x="1142" d="M170 305q0 156 109 238q96 72 256 71q106 0 219 -61q-2 217 -207 217q-111 0 -185 -53l-67 119q102 88 283 88q160 0 262 -72q117 -80 116 -234v-600h-202v72q-150 -78 -279 -78q-143 0 -224 76t-81 217zM315 1071q59 111 168 111q39 0 115 -26t117 -26q86 0 114 64 l70 -51q-16 -51 -104 -84q-33 -12 -66 -12q-39 0 -110.5 25.5t-104.5 25.5q-66 0 -125 -74zM377 311q0 -66 65 -100q51 -27 123 -27q35 0 107 27q80 31 80 57v111q0 37 -66 61q-53 20 -96 21q-213 0 -213 -150z" />
<glyph unicode="&#xe4;" horiz-adv-x="1114" d="M158 305q0 156 108 238q96 72 256 71q106 0 219 -61q-2 217 -206 217q-111 0 -187 -53l-65 119q102 88 282 88q160 0 262 -72q117 -80 117 -234v-600h-203v72q-150 -78 -278 -78q-143 0 -224 76t-81 217zM242 1120q0 49 32.5 81t81.5 32q47 0 80 -33t33 -80t-33 -80.5 t-80 -33.5q-49 0 -81.5 32.5t-32.5 81.5zM365 311q0 -66 65 -100q51 -27 123 -27q33 0 109.5 30t76.5 54v111q0 37 -65 61q-53 20 -96 21q-213 0 -213 -150zM637 1120q0 47 34 80t81 33t80.5 -33t33.5 -80t-33.5 -80.5t-80.5 -33.5t-81 33.5t-34 80.5z" />
<glyph unicode="&#xe5;" horiz-adv-x="1101" d="M143 311q0 158 109 238q94 70 258 69q117 0 227 -51q-43 197 -217 197q-100 0 -182 -51l-70 141q45 47 181 78q-96 88 -96.5 176t60 147.5t148.5 59.5t147.5 -59.5t59.5 -147.5q0 -121 -96 -186q258 -88 258 -304v-600h-201v72q-152 -78 -278 -78q-143 0 -225.5 79 t-82.5 220zM352 311q0 -127 189 -127q45 0 106 21q82 27 82 63v140q0 20 -76 38q-57 14 -88 15q-213 0 -213 -150zM420 1107.5q0 -63.5 39 -105t102 -41.5q61 0 100 43t39 104t-38.5 104t-100.5 43q-63 0 -102 -42t-39 -105.5z" />
<glyph unicode="&#xe6;" horiz-adv-x="1755" d="M145 311q0 156 109 236q96 72 258 71q117 0 227 -51q-41 197 -215 197q-102 0 -182 -51l-72 141q82 82 269 82q205 0 327 -123q127 100 308 100q219 0 321 -178q82 -141 84 -377h-643q-2 -66 50 -119t120 -63q25 -4 61 -4q117 0 172 49l144 -106q-106 -117 -330 -117 q-94 0 -168 37q-57 29 -154 110l-114 -92q-2 -2 -31 -14q-98 -41 -205 -41q-152 0 -244 81.5t-92 231.5zM354 311q0 -66 66 -100q51 -27 123 -27q47 0 108 21q80 27 80 63v84q0 12 -3 37t-3 37q-51 35 -158 35q-213 0 -213 -150zM934 512h440q0 98 -58.5 167t-156.5 69 t-161.5 -69t-63.5 -167z" />
<glyph unicode="&#xe7;" horiz-adv-x="1017" d="M129 451q0 195 124 323.5t318 128.5q170 0 291 -104l-153 -115q-53 41 -138 41q-113 0 -172 -84q-51 -74 -51 -192q0 -272 225 -273q96 0 150 49l170 -102q-84 -86 -229 -117q2 -35 2 -51q0 -238 -275 -238q-41 0 -84 7l39 96q18 -4 41 -4q84 0 131 49t47 133 q-205 8 -320.5 128t-115.5 325z" />
<glyph unicode="&#xe8;" horiz-adv-x="1169" d="M172 444q0 217 117 343t332 126q219 0 321 -178q82 -141 84 -377h-643q-2 -66 50 -119t120 -63q25 -4 61 -4q100 0 162 61l144 -106q-115 -129 -306 -129q-203 0 -322.5 121.5t-119.5 324.5zM381 512h440q0 98 -58 167t-156.5 69t-162 -69t-63.5 -167zM403 1335h138 l131 -352h-74z" />
<glyph unicode="&#xe9;" horiz-adv-x="1157" d="M158 444q0 217 116.5 343t331.5 126q209 0 322 -176q84 -131 84 -379h-643q0 -68 51 -119t121 -63q25 -4 61 -4q98 0 160 61l143 -106q-115 -129 -305 -129q-203 0 -322.5 121.5t-119.5 324.5zM367 512h440q0 98 -58.5 167t-156.5 69t-161.5 -69t-63.5 -167zM455 983h71 l197 352h-139z" />
<glyph unicode="&#xea;" horiz-adv-x="1153" d="M143 444q0 217 117 343t332 126q219 0 321 -178q82 -141 84 -377h-643q-2 -66 50.5 -119t119.5 -63q25 -4 62 -4q100 0 162 61l143 -106q-115 -129 -305 -129q-203 0 -323 121.5t-120 324.5zM309 983l189 352h135l188 -352h-102l-156 283l-153 -283h-101zM352 512h441 q0 98 -58.5 167t-157 69t-162 -69t-63.5 -167z" />
<glyph unicode="&#xeb;" horiz-adv-x="1155" d="M129 444q0 217 116.5 343t332.5 126q219 0 321 -178q82 -141 84 -377h-643q-2 -66 50 -119t120 -63q25 -4 61 -4q100 0 162 61l144 -106q-115 -129 -306 -129q-203 0 -322.5 121.5t-119.5 324.5zM260 1120q0 47 34 80t81 33t80.5 -33t33.5 -80t-33.5 -80.5t-80.5 -33.5 t-81 33.5t-34 80.5zM338 512h440q0 98 -58 167t-156.5 69t-162 -69t-63.5 -167zM657 1120q0 47 33 80t80 33t81 -33t34 -80t-34 -80.5t-81 -33.5t-80 33.5t-33 80.5z" />
<glyph unicode="&#xec;" horiz-adv-x="542" d="M104 1335h138l131 -352h-74zM158 14v834h207v-834h-207z" />
<glyph unicode="&#xed;" horiz-adv-x="542" d="M154 14v834h206v-834h-206zM184 983h74l195 352h-138z" />
<glyph unicode="&#xee;" horiz-adv-x="524" d="M94 1032l129 250h121l129 -250h-78l-114 223l-111 -223h-76zM201 14v830h166v-830h-166z" />
<glyph unicode="&#xef;" horiz-adv-x="501" d="M-16 1120q0 47 32.5 80t79.5 33t81 -33t34 -80t-34 -80.5t-81 -33.5t-79.5 33.5t-32.5 80.5zM205 14v836h178v-836h-178zM379 1120q0 47 33.5 80t81 33t81 -33t33.5 -80t-33.5 -80.5t-81 -33.5t-81 33.5t-33.5 80.5z" />
<glyph unicode="&#xf0;" horiz-adv-x="1232" d="M170 397q0 174 108.5 276.5t282.5 102.5q45 0 107 -18q33 -10 157 -60q-104 203 -196 303l-248 -102l-35 82l217 84q-82 63 -180 129h244q31 -18 94 -66l162 70l35 -82l-123 -51q119 -143 172 -254q68 -141 67 -299q0 -233 -98 -369q-113 -154 -338 -153 q-199 0 -313.5 105t-114.5 302zM389 403q0 -276 217 -276q213 0 213 297q0 43 -8 100q-109 80 -233 80q-189 0 -189 -201z" />
<glyph unicode="&#xf1;" horiz-adv-x="1132" d="M160 14v871h202v-105q129 119 277 119q141 0 227 -84t86 -225v-576h-207v496q0 86 -47 141.5t-131 55.5t-144.5 -56.5t-60.5 -140.5v-496h-202zM293 1071q59 111 168 111q39 0 115.5 -26t115.5 -26q86 0 115 64l70 -51q-16 -51 -105 -84q-33 -12 -65 -12q-39 0 -111 25.5 t-104 25.5q-66 0 -125 -74z" />
<glyph unicode="&#xf2;" horiz-adv-x="1155" d="M143 451q0 195 124 323.5t318.5 128.5t317.5 -129t123 -323q0 -203 -119 -328t-321 -125q-207 0 -325 122t-118 331zM362 449q0 -272 226 -273q164 0 205 139q14 49 14 134q0 276 -221 276q-115 0 -172 -84q-52 -73 -52 -192zM418 1335h137l131 -352h-72z" />
<glyph unicode="&#xf3;" horiz-adv-x="1171" d="M158 451q0 195 124 323.5t318.5 128.5t317 -129t122.5 -323q0 -203 -118.5 -328t-321.5 -125q-207 0 -324.5 123t-117.5 330zM377 449q0 -272 225 -273q221 0 221 273q0 276 -223 276q-115 0 -172 -84q-51 -73 -51 -192zM594 983h72l196 352h-137z" />
<glyph unicode="&#xf4;" horiz-adv-x="1175" d="M147 451q0 195 123 323.5t317.5 128.5t318.5 -128t124 -324q0 -205 -119.5 -329t-322.5 -124q-207 0 -324 123t-117 330zM336 983l188 352h133l189 -352h-101l-155 283l-156 -283h-98zM367 449q0 -272 223 -273q221 0 221 273q0 276 -223 276q-221 0 -221 -276z" />
<glyph unicode="&#xf5;" horiz-adv-x="1196" d="M170 451q0 195 124 323.5t318.5 128.5t318.5 -128t124 -324q0 -205 -120 -329t-323 -124q-207 0 -324.5 123t-117.5 330zM332 1071q59 111 168 111q39 0 114.5 -26t116.5 -26q86 0 115 64l67 -51q-12 -43 -39 -60l-64 -24q-32 -12 -65 -12q-39 0 -111.5 25.5t-105.5 25.5 q-63 0 -125 -74zM389 449q0 -272 225 -273q221 0 222 273q0 276 -224 276q-115 0 -172 -84q-51 -73 -51 -192z" />
<glyph unicode="&#xf6;" horiz-adv-x="1218" d="M160 451q0 195 124 323.5t318.5 128.5t317 -129t122.5 -323q0 -203 -118.5 -328t-321.5 -125q-207 0 -324.5 123t-117.5 330zM303 1120q0 47 33 80t80 33q49 0 81.5 -32t32.5 -81t-32.5 -81.5t-81.5 -32.5q-47 0 -80 33.5t-33 80.5zM379 449q0 -272 225 -273 q221 0 221 273q0 276 -223 276q-115 0 -172 -84q-51 -73 -51 -192zM698 1120q0 47 34 80t81 33t81 -33t34 -80t-34 -80.5t-81 -33.5t-81 33.5t-34 80.5z" />
<glyph unicode="&#xf7;" horiz-adv-x="1193" d="M123 444v156h979v-156h-979zM471 934q0 66 43 111t108.5 45t109.5 -45.5t44 -110.5q0 -63 -45 -109.5t-108.5 -46.5t-107.5 46.5t-44 109.5zM471 111q0 61 45 103t106.5 42t107.5 -42t46 -103q0 -63 -45 -105.5t-108.5 -42.5t-107.5 42.5t-44 105.5z" />
<glyph unicode="&#xf8;" horiz-adv-x="1173" d="M152 453q0 213 115.5 332.5t326.5 119.5q203 0 322.5 -124t119.5 -328q0 -213 -114.5 -334t-327.5 -121q-209 0 -311 117q-131 148 -131 338zM373 494q0 -82 53 -187l315 348l-49 35q-37 27 -98 27q-100 0 -160.5 -61.5t-60.5 -161.5zM455 244q104 -55 141 -56 q109 0 167 70t58 180q0 63 -33 166z" />
<glyph unicode="&#xf9;" horiz-adv-x="1122" d="M178 311v576h207v-494q0 -86 47 -141t131 -55t144.5 56t60.5 140v494h203v-869h-203v103q-129 -117 -276 -117q-141 0 -227.5 83t-86.5 224zM428 1335h137l131 -352h-71z" />
<glyph unicode="&#xfa;" horiz-adv-x="1144" d="M176 311v576h207v-494q0 -86 47 -141t131 -55t144.5 56t60.5 140v494h205v-869h-205v103q-129 -117 -277 -117q-141 0 -227 83t-86 224zM502 983h71l197 352h-137z" />
<glyph unicode="&#xfb;" horiz-adv-x="1095" d="M156 311v576h204v-494q0 -86 47.5 -141t131.5 -55t144 56t60 140v494h205v-869h-205v103q-127 -117 -274 -117q-141 0 -227 83t-86 224zM307 983l189 352h135l188 -352h-102l-156 283l-155 -283h-99z" />
<glyph unicode="&#xfc;" horiz-adv-x="1093" d="M143 311v576h207v-494q0 -86 47 -141t131 -55t143.5 56t59.5 140v494h205v-869h-205v103q-127 -117 -274 -117q-141 0 -227.5 83t-86.5 224zM227 1120q0 47 34 80t81 33t81 -33t34 -80t-34 -80.5t-81 -33.5t-81 33.5t-34 80.5zM625 1120q0 49 32.5 81t81.5 32 q47 0 80 -33t33 -80t-33 -80.5t-80 -33.5q-49 0 -81.5 32.5t-32.5 81.5z" />
<glyph unicode="&#xfd;" horiz-adv-x="1216" d="M162 887h250l231 -608l240 608h217l-490 -1241h-231l141 356zM502 983h71l197 352h-137z" />
<glyph unicode="&#xfe;" horiz-adv-x="1118" d="M143 -279v1475h207v-489q113 158 248 157q166 0 271.5 -116.5t105.5 -284.5q0 -174 -90 -299q-100 -139 -269 -139q-156 0 -266 96v-400h-207zM350 436q0 -92 65.5 -165.5t158 -73.5t158 73.5t65.5 165.5q0 94 -65.5 168t-158 74t-158 -74t-65.5 -168z" />
<glyph unicode="&#xff;" horiz-adv-x="1198" d="M145 887h250l232 -608l239 608h217l-489 -1241h-232l142 356zM315 1120q0 47 34 80t81 33t81 -33t34 -80t-34 -80.5t-81 -33.5t-81 33.5t-34 80.5zM713 1120q0 47 32.5 80t79.5 33t81 -33t34 -80t-34 -80.5t-81 -33.5t-79.5 33.5t-32.5 80.5z" />
<glyph unicode="&#x152;" horiz-adv-x="2410" d="M152 582q0 270 145 424.5t414 154.5q266 0 411.5 -155.5t145.5 -423.5q0 -270 -144.5 -426t-412.5 -156q-262 0 -410.5 160t-148.5 422zM401 582q0 -383 309.5 -383t309.5 383t-309.5 383t-309.5 -383zM1556 14v1135h748v-168h-528v-270h323v-168h-323v-361h528v-168 h-748z" />
<glyph unicode="&#x153;" horiz-adv-x="2191" d="M119 451q0 195 123 323.5t317.5 128.5t318 -128t123.5 -324q0 -205 -119.5 -329t-322.5 -124q-207 0 -323.5 123t-116.5 330zM336 449q0 -272 225 -273q221 0 221 273q0 276 -223 276q-115 0 -172 -84q-51 -73 -51 -192zM1233 444q0 217 116.5 343t331.5 126 q219 0 322 -178q82 -141 84 -377h-643q-2 -66 50 -119t120 -63q25 -4 61 -4q100 0 162 61l143 -106q-115 -129 -305 -129q-203 0 -322.5 121.5t-119.5 324.5zM1442 512h440q0 98 -58.5 167t-156.5 69t-161.5 -69t-63.5 -167z" />
<glyph unicode="&#x178;" horiz-adv-x="1306" d="M145 1149h265l274 -504l266 504h252l-407 -694v-441h-234v426zM360 1399q0 47 34 80.5t81 33.5t80 -33.5t33 -80.5t-33 -81t-80 -34t-81 34t-34 81zM756 1399q0 47 33.5 80.5t81 33.5t81 -33.5t33.5 -80.5t-33.5 -81t-81 -34t-81 34t-33.5 81z" />
<glyph unicode="&#x2c6;" horiz-adv-x="1179" d="M369 983l188 352h135l189 -352h-103l-155 283l-154 -283h-100z" />
<glyph unicode="&#x2dc;" horiz-adv-x="1204" d="M342 1071q59 111 168 111q39 0 114.5 -26t116.5 -26q86 0 115 64l68 -51q-12 -43 -39 -60l-65 -24q-32 -12 -64 -12q-39 0 -112 25.5t-105 25.5q-63 0 -125 -74z" />
<glyph unicode="&#x2013;" horiz-adv-x="1024" d="M205 512v205h614v-205h-614z" />
<glyph unicode="&#x2014;" horiz-adv-x="2048" d="M205 512v205h1638v-205h-1638z" />
<glyph unicode="&#x2018;" horiz-adv-x="493" d="M158 1020q0 236 182 252v-10q-94 -14 -102 -129l34 2h5q42 0 74 -34q34 -36 34 -81q0 -47 -34 -81t-81 -34t-79.5 34t-32.5 81z" />
<glyph unicode="&#x2019;" horiz-adv-x="491" d="M133 1081q0 49 33 82t82 33t81.5 -33t32.5 -82q0 -98 -43 -166q-49 -78 -141 -86v11q94 14 103 129h-33q-49 0 -82 31.5t-33 80.5z" />
<glyph unicode="&#x201a;" horiz-adv-x="499" d="M129 -125l88 492h139l-163 -492h-64z" />
<glyph unicode="&#x201c;" horiz-adv-x="821" d="M137 1020q0 98 43 166q49 78 142 86v-10q-94 -14 -103 -129l33 2h5q42 0 75 -33q35 -35 35 -82t-34 -81t-81 -34t-81 34t-34 81zM479 1020q0 98 43 166q49 78 142 86v-10q-94 -14 -103 -129l35 2h5q42 0 74 -34q34 -36 34 -81q0 -47 -34 -81t-81 -34t-81 34t-34 81z" />
<glyph unicode="&#x201d;" horiz-adv-x="790" d="M119 1081q0 49 32.5 82t82 33t82 -33t32.5 -82q0 -98 -43 -166q-49 -78 -141 -86v11q94 14 102 129h-33q-49 0 -81.5 31.5t-32.5 80.5zM463 1081q0 49 31.5 82t81 33t82 -33t32.5 -82q0 -98 -43 -166q-49 -78 -141 -86l2 11q92 14 100 129h-33q-49 0 -80.5 31.5 t-31.5 80.5z" />
<glyph unicode="&#x2026;" horiz-adv-x="1263" d="M172 129q0 47 33 81t80 34t80.5 -34t33.5 -81t-33.5 -81t-80.5 -34t-80 34t-33 81zM532 129q0 47 33 81t80 34t81 -34t34 -81t-34 -81t-81 -34t-80 34t-33 81zM893 129q0 47 32.5 81t80 34t81 -34t33.5 -81t-33.5 -81t-81 -34t-80 34t-32.5 81z" />
<glyph unicode="&#x2039;" horiz-adv-x="1435" d="M236 631l548 413q16 12 35 13q25 0 25 -27q0 -4 -2 -14l-45 -221h434v-328h-434l45 -219q2 -10 2 -15q0 -27 -25 -26q-18 0 -35 12z" />
<glyph unicode="&#x203a;" horiz-adv-x="1441" d="M221 467v328h434l-45 221v14q0 27 23 27q18 0 35 -13l549 -413l-549 -412q-16 -12 -35 -12q-23 0 -23 26v15l45 219h-434z" />
<glyph unicode="&#x2122;" horiz-adv-x="2723" d="M152 954v195h956v-195h-363v-940h-229v940h-364zM1407 14v1135h299l289 -606l289 606h299v-1135h-238v789l-350 -762l-367 758v-785h-221z" />
<glyph unicode="&#xe000;" horiz-adv-x="890" d="M0 890h890v-890h-890v890z" />
<glyph unicode="&#xfb01;" horiz-adv-x="1331" d="M152 743v134h112q0 324 289 323q45 0 98 -6v-154q-88 0 -125 -14q-74 -29 -82 -149h207v-134h-196v-729h-191v729h-112zM969 1092q0 49 32.5 81.5t82 32.5t82 -32.5t32.5 -81.5q0 -47 -34 -80t-81 -33t-80.5 33t-33.5 80zM979 14v871h205v-871h-205z" />
<glyph unicode="&#xfb02;" horiz-adv-x="1386" d="M152 743v134h112q0 324 289 323q45 0 98 -6v-154q-88 0 -125 -14q-74 -29 -82 -149h207v-134h-196v-729h-191v729h-112zM1008 14v1063l206 107v-1170h-206z" />
<glyph unicode="&#xfb03;" horiz-adv-x="2152" d="M152 743v134h112q0 324 289 323q45 0 98 -6v-154q-88 0 -125 -14q-74 -29 -82 -149h207v-134h-196v-729h-191v729h-112zM973 743v134h112q0 324 289 323q45 0 99 -6v-154q-88 0 -125 -14q-74 -29 -82 -149h207v-134h-197v-729h-191v729h-112zM1790 1092q0 49 32.5 81.5 t82 32.5t82 -32.5t32.5 -81.5q0 -47 -33.5 -80t-80.5 -33t-81 33t-34 80zM1800 14v871h205v-871h-205z" />
<glyph unicode="&#xfb04;" horiz-adv-x="2207" d="M152 743v134h112q0 324 289 323q45 0 98 -6v-154q-88 0 -125 -14q-74 -29 -82 -149h207v-134h-196v-729h-191v729h-112zM973 743v134h112q0 324 289 323q45 0 99 -6v-154q-88 0 -125 -14q-74 -29 -82 -149h207v-134h-197v-729h-191v729h-112zM1829 14v1063l207 107v-1170 h-207z" />
</font>
</defs>
</svg>
